#TITLE:4F73R M3;
#SUBTITLE:;
#ARTIST:SuperGreenX;
#TITLETRANSLIT:;
#SUBTITLETRANSLIT:;
#ARTISTTRANSLIT:;
#CREDIT:;
#BANNER:4F73RM3.png;
#BACKGROUND:4F73RM3-bg.png;
#LYRICSPATH:;
#CDTITLE:!a0Title.png;
#MUSIC:4F73RM3.mp3;
#OFFSET:-17.528;
#SAMPLESTART:69.600;
#SAMPLELENGTH:18.000;
#SELECTABLE:YES;
#BPMS:0.000=110.000;
#STOPS:;
#BGCHANGES:;
// cache tags:
#FIRSTBEAT:0.000;
#LASTBEAT:300.000;
#SONGFILENAME:Songs/Music V.I.P ^_^/4F73R M3/4F73RM3.sm;
#HASMUSIC:1;
#HASBANNER:1;
#MUSICLENGTH:189.892;
// end cache tags

//---------------dance-single - ----------------
#NOTES:
     dance-single:
     :
     Hard:
     9:
     0.670,0.790,1.000,0.011,0.635,624.000,264.000,2.000,0.000,0.000:  // measure 1
1001
0000
0001
0010
0001
0000
1000
0100
1000
0100
1000
0000
1100
0000
0011
0000
,  // measure 2
1100
0000
0001
0010
0100
0000
1000
0100
0010
0001
0100
0000
1001
0000
0011
0000
,  // measure 3
1100
0000
0010
1000
0100
0000
0010
1000
0100
0010
0001
0000
1010
0000
0110
0000
,  // measure 4
0011
0000
0010
0100
1000
0000
0010
0100
1000
0010
0100
0000
1010
0000
0011
0000
,  // measure 5
1100
0000
0000
0000
0000
0000
0101
0000
0011
0000
0000
1010
0000
0000
0101
0000
,  // measure 6
0000
0000
0000
0000
,  // measure 7
0000
0000
0000
0000
0000
0000
0011
0000
0110
0000
0000
0011
0000
0000
1100
0000
,  // measure 8
0000
0000
0000
0000
,  // measure 9
0100
0010
0000
1100
0000
0110
0000
0011
0000
0110
0000
1000
0010
0000
0101
0000
,  // measure 10
0100
1000
0100
0010
0001
0100
0010
1000
0100
0010
0001
0100
0010
0000
0110
0000
,  // measure 11
1000
0001
0000
0011
0000
1010
0000
0101
0000
0110
0000
1000
0100
0000
0001
0010
,  // measure 12
0100
1000
0010
0000
1100
0000
0000
0011
0000
0010
0100
0000
1100
0000
0101
0000
,  // measure 13
1000
0100
0000
0101
0000
1010
0000
0011
0000
1100
0000
0001
1000
0000
0001
0000
,  // measure 14
0001
0010
0100
1000
0100
0010
0001
0010
0100
1000
0100
0010
0001
0000
0001
0000
,  // measure 15
0001
0010
0000
1100
0000
1001
0000
0011
0000
0110
0000
1000
0100
0000
0100
0000
,  // measure 16
0001
0010
0100
1000
0100
0000
0001
0010
0100
1000
0100
0000
0001
0010
0100
0000
,  // measure 17
0001
0100
0000
0011
0000
0000
1100
0000
0011
0000
1000
0010
0000
0000
0000
0000
,  // measure 18
0010
1000
0001
0000
0100
0000
0001
0000
0100
0000
1000
0010
0000
0000
0000
0000
,  // measure 19
0011
0000
1000
0001
0000
0000
0001
0100
0000
0100
0010
0100
0001
0000
0000
0000
,  // measure 20
1000
0010
1000
0100
1000
0010
1000
1010
,  // measure 21
1010
0000
1010
0000
0000
0000
0001
0100
1000
0000
0000
1100
0000
0000
0010
0100
,  // measure 22
0010
1000
0001
0000
0010
0000
0001
0000
0010
0000
0000
0011
0000
0000
0000
0000
,  // measure 23
0001
0000
0010
0000
0001
0000
0100
0000
0001
0000
0010
1000
0100
0000
0000
0000
,  // measure 24
0100
1000
0010
1000
0100
0000
1000
0000
0001
0010
0000
0000
0011
0000
0000
0000
,  // measure 25
0010
0100
0000
0011
0000
1100
0000
1010
0000
0101
0000
0100
0001
0000
1100
0000
,  // measure 26
0011
0000
1100
0000
0110
0000
1001
1001
,  // measure 27
1001
0100
0000
0011
0000
0011
0000
1100
0000
1100
0000
0100
0001
0000
1100
0000
,  // measure 28
0001
0010
0100
0010
0001
0000
1000
0010
0000
0000
0100
0000
0110
0000
0110
0000
,  // measure 29
0110
0001
0000
0110
0000
1001
0000
0110
0000
1001
0000
0010
0001
0000
1000
0000
,  // measure 30
0110
0000
1001
0000
0110
0000
1010
1010
,  // measure 31
0101
0010
0000
1100
0000
0110
0000
1100
0000
0110
0000
0010
1000
0000
0100
0000
,  // measure 32
0100
0010
0001
0100
0010
0000
0100
0010
0001
0100
0010
0000
0100
0010
0001
0000
,  // measure 33
0011
0000
0001
0000
0010
0001
0000
0001
0100
0000
0100
1000
0000
1000
0100
0000
,  // measure 34
0110
0000
0110
0000
0010
0100
0000
0100
0001
0000
0001
1000
0000
1000
0001
0000
,  // measure 35
0011
0000
0011
0000
0010
0100
0000
0100
0001
0000
0001
1000
0000
1000
0100
0000
,  // measure 36
1100
0000
1100
0000
0100
0010
0000
0010
1000
0000
1000
0100
0000
0100
0001
0000
,  // measure 37
1001
0000
1001
0000
0010
0100
0000
0100
0001
0000
0001
1000
0000
1000
0100
0000
,  // measure 38
0110
0000
0110
0000
0010
0100
0000
0100
1000
0000
1000
0100
0000
0100
0001
0000
,  // measure 39
0011
0000
0011
0000
0001
0010
0000
0010
0100
0000
0100
1000
0000
1000
0100
0000
,  // measure 40
0110
0000
0110
0000
0001
1000
0000
1000
0001
0000
0001
1000
0000
1000
0001
0000
,  // measure 41
0011
0000
0000
0011
0000
0000
0011
0000
0000
0011
0000
0000
0011
0000
0011
0000
,  // measure 42
1100
0000
0000
1100
0000
0000
1100
0000
0000
1100
0000
0000
1100
0000
1100
0000
,  // measure 43
0110
0000
0000
0110
0000
0000
0110
0000
0000
0110
0000
0000
0110
0000
0110
0000
,  // measure 44
1001
0000
0000
1001
0000
0000
1001
0000
0000
1001
0000
0000
1001
0000
1001
0000
,  // measure 45
0101
0000
0000
0101
0000
0000
0101
0000
0000
0101
0000
0000
0101
0000
0101
0000
,  // measure 46
1010
0000
0000
1010
0000
0000
1010
0000
0000
1010
0000
0000
1010
0000
1010
0000
,  // measure 47
0110
0000
0000
1001
0000
0000
0110
0000
0000
1001
0000
0000
0110
0000
1001
0000
,  // measure 48
0011
0000
0000
1100
0000
0000
0011
0000
0000
1100
0000
0000
0011
0000
1100
0000
,  // measure 49
0011
0000
0001
0010
0100
1000
0100
0000
1100
0000
0011
0000
1100
0000
0011
0000
,  // measure 50
0001
1000
0100
0010
0100
0000
1010
0000
0101
0000
1000
0001
0000
0000
0001
0000
,  // measure 51
1000
0000
0100
0000
1001
0000
1001
0000
1001
0000
0001
1000
0000
0000
1100
1100
,  // measure 52
1100
0000
0011
0011
0011
0000
1100
1100
1100
0000
1001
1001
0000
0000
0010
1000
,  // measure 53
0100
0000
0100
0010
0000
0000
0001
0000
1000
0000
0010
0100
0000
0000
0100
0000
,  // measure 54
0010
0000
0001
0010
0001
0000
0100
0000
0010
0000
0001
1000
0000
0000
0000
0000
,  // measure 55
1100
0000
0110
0000
0011
0000
1001
0000
1000
0100
0010
0001
0000
0000
0001
0010
,  // measure 56
0001
0000
0001
1000
0000
0000
0010
0100
0010
0000
1001
0000
1001
0000
0000
0000
,  // measure 57
0001
0010
0000
0110
0000
0011
0000
1001
0000
1100
0000
0001
0010
0000
1100
0000
,  // measure 58
1001
0000
1001
0000
1001
0000
0110
1001
,  // measure 59
0100
0010
0000
1001
0000
0110
0000
1100
0000
0011
0000
1000
0001
0000
0110
0000
,  // measure 60
0001
0010
0001
1000
0100
0000
0100
0010
0000
0000
0010
0000
1100
0000
0101
0000
,  // measure 61
1000
0001
0000
0110
0000
1100
0000
0011
0000
0110
0000
1000
0100
0000
0011
0000
,  // measure 62
1100
0000
1100
0000
1100
0000
1010
0011
,  // measure 63
0010
0001
0000
1010
0000
0011
0000
0101
0000
1100
0000
0010
0100
0000
0110
0000
,  // measure 64
0001
0010
0100
1000
0100
0000
0001
0010
0100
1000
0100
0000
0001
0010
0100
0000
,  // measure 65
1001
0000
1001
0000
0101
1010
0000
0000
,  // measure 66
0001
1000
0000
0110
0000
0011
0000
1100
0000
0110
0000
1000
0001
0000
1001
0000
,  // measure 67
1001
0000
1001
0000
1001
0000
0110
1001
,  // measure 68
0010
0001
0000
0011
0000
1100
0000
0110
0000
0011
0000
1000
0001
0000
0011
0000
,  // measure 69
0001
0010
0001
0100
0001
0000
0001
1000
0000
0000
0010
0000
1100
0000
0110
0000
,  // measure 70
0001
0100
0000
1100
0000
0101
0000
1100
0000
0101
0000
0010
1000
0000
1001
0000
,  // measure 71
1001
0000
1001
0000
1001
0000
0101
0101
,  // measure 72
1000
0001
0000
1001
0000
0110
0000
1001
0000
0110
0000
0100
1000
0000
0011
0000
,  // measure 73
1001
0110
1001
0110
1001
0000
0011
1100
0011
1100
0011
0000
1100
0101
1100
0000
,  // measure 74
1100
0101
0000
1100
0101
1100
0101
0000
,  // measure 75
2002
0000
0000
0000
,  // measure 76
3003
0000
0000
0000
;
